Skip to main content

Monks of Doom Live at QE2 on 1991-05-19


Topics Live concert


Intro, Trapped, Oh Well, The Harbor Incident, Facts About Spiders, Vivian Girls - Ukrainian Technological Faith Dance, The Traveler, Going South, Follow The Queen, Cherry Blossom Baptism, Door To Success, Hieroglyphic (The History Of Women), Riverbed, Turn It On Itself, La Dolce Vita Suite, Vaporize Your Crystals


Collection MonksofDoom
Band/Artist Monks of Doom
Date May 19, 1991
Venue QE2
Location Albany, NY

Source ECM 929> D6> M EQ 230 > SV-3700 > HHB 830 30'Stage Center
Lineage ?
Taped by ?
Transferred by ? /TAS


Notes

Audience Recording

Harm Farm opened

01 Intro
02 Trapped
03 Oh Well (Peter Green / Fleetwood Mac cover)
04 The Harbor Incident
05 Facts About Spiders
06 Vivian Girls (Snakefinger/Residents cover) > Ukrainian Technological Faith Dance
07 The Traveler
08 Going South
09 Follow The Queen
10 Cherry Blossom Baptism
11 Door To Success
12 Hieroglyphic (The History Of Women)
13 Riverbed
14 Turn It On Itself
15 La Dolce Vita Suite
16 Vaporize Your Crystals

length expanded size cdr WAVE problems filename
0:44.41 7858076 --- -- ---xx mod1991-05-19t01.flac
3:15.24 34454492 --- -- ---xx mod1991-05-19t02.flac
3:30.30 37114604 --- -- ---xx mod1991-05-19t03.flac
4:31.47 47914988 --- -- ---xx mod1991-05-19t04.flac
3:52.31 40997756 --- -- ---xx mod1991-05-19t05.flac
7:06.04 75155852 --- -- ---xx mod1991-05-19t06.flac
5:51.41 62012876 --- -- ---xx mod1991-05-19t07.flac
6:50.54 72451052 --- -- ---xx mod1991-05-19t08.flac
2:37.58 27831260 --- -- ---xx mod1991-05-19t09.flac
7:02.09 74462012 --- -- ---xx mod1991-05-19t10.flac
4:20.05 45875804 --- -- ---xx mod1991-05-19t11.flac
3:17.52 34873148 --- -- ---xx mod1991-05-19t12.flac
3:22.48 35745740 --- -- ---xx mod1991-05-19t13.flac
4:36.64 48836972 --- -- ---xx mod1991-05-19t14.flac
5:10.18 54726380 --- -- ---xx mod1991-05-19t15.flac
3:14.64 34372172 --- -- ---xx mod1991-05-19t16.flac
69:24.65 734683184 B (totals for 16 files, 0.5883 overall compression ratio)

Reviews

Reviewer: Singlemaltscot - - November 9, 2011
Subject: mic info
I've been going through my CDs and digitizing stuff from my trading days. I came across the taper info on this one. Unfortunately I don't have their name too for full credit. Check out CVB 09-02-1987 which is from the same taper great stuff. Here's the info I have on this show:

ECM 929> D6> M EQ 230 > SV-3700 > HHB 830 30'Stage Center
PEOPLE ALSO FOUND
Monks of Doom
by Monks of Doom
2,819
1
2
( 2 reviews )
Source: SBD?
Monks of Doom
by Monks of Doom
22,142
1
3
( 3 reviews )
Source: Realistic 33-1063 omni mic > Marantz PMD430 cassette deck w/ Dolby B NR
Monks of Doom
by Monks of Doom
703
1
1
( 1 reviews )
Source: DPA 4061 mics > Sony PCM-D50 > WAV @48/24
Monks of Doom
by Monks of Doom
780
1
3
( 3 reviews )
Source: Neumann KM-140 > Beyer MV100 > Sony SBM-1 > Sony D8
Monks of Doom
by Monks of Doom
545
1
0
Source: DPA 4061 mics > Sony PCM-D50 > WAV @48/24
Monks of Doom
by Monks of Doom
168
1
0
Source: DPA 4061 mics > Sony PCM-D50 > WAV @48/24
Monks of Doom
by Monks of Doom
1,271
1
0
Source: AKG C522MS ("The Pickle Mic") > Grace Lunatec V3 (mic preamp & A>D converter) + Soundcraft 800B SBD > Edirol R44 > WAVs @48kHz/24bit
Monks of Doom
by Monks of Doom
2,799
1
1
( 1 reviews )
Source: ECM 929> D6> M EQ 230 > SV-3700 > HHB 830 30'Stage Center
Monks of Doom
by Monks of Doom
4,886
2
2
( 2 reviews )
Source: AUD > MD
Monks of Doom
by Monks of Doom
1,364
1
0
Source: SBD?